Скачать порно через торрент Mellow Merou UnionPeer.org бесплатно онлайн HD качество

Скачать новое порно 2015, 2014 новинки через торрент UnionPeer.org

Порно торрент бесплатно ЮнионПир.орг

Статистика раздачи
Размер:  601 MB   |    Зарегистрирован:  19 дней   |    .torrent скачан:  67 раз   |   
Раздают:  1  
   
загрузка...
 
Автор Сообщение

Galfimbul

avatar Galfimbul


<div class="post-align" style="text-align: center;">Mellow / Merou / 女郎(めろう) / Меллоу</div>
Год выпуска: 1993
Жанр: comedy, school life, seinen
Серии: ep. 1 of 1
Продолжительность: 00:45:35 (~45 min)
Цензура: Эччи - легкая эротика

Язык: Японский
Озвучка: Оригинальная
Режиссер: Teruo Kogure
Автор оригинала: Rin Kasahara
Студия: Tokyo Laboratory, Knack

Описание: В жизни каждого мужчины бывает ситуация, когда ему приходится надевать платье и играть роль женщины. В данном случае роль учительницы старших классов.

Доп. информация: Нужны описание и перевод.

Качество видео: VHSRip
Формат видео: MKV
Видео: MPEG4 Video (H264) 640x480 29.97fps 1548Kbps
Аудио 1: AAC 48000Hz stereo 288Kbps
General
Unique ID : 202479674732418710365480289274753150406 (0x98542AB7F8EBE8A7888F4CB4D66B6DC6)
Complete name : [Orphan-raw] Mellow (VHS) [1D7753FE].mkv
Format : Matroska
Format version : Version 4 / Version 2
File size : 601 MiB
Duration : 45 min 34 s
Overall bit rate : 1 843 kb/s
Encoded date : UTC 2018-12-10 06:03:06
Writing application : mkvmerge v18.0.0 (''Apricity'') 64-bit
Writing library : libebml v1.3.5 + libmatroska v1.4.8

Video
ID : 1
Format : AVC
Format/Info : Advanced Video Codec
Format profile : High 10@L4.1
Format settings : CABAC / 16 Ref Frames
Format settings, CABAC : Yes
Format settings, ReFrames : 16 frames
Codec ID : V_MPEG4/ISO/AVC
Duration : 45 min 34 s
Bit rate : 1 548 kb/s
Width : 640 pixels
Height : 480 pixels
Display aspect ratio : 4:3
Frame rate mode : Constant
Frame rate : 29.970 (30000/1001) FPS
Color space : YUV
Chroma subsampling : 4:2:0
Bit depth : 10 bits
Scan type : Progressive
Bits/(Pixel*Frame) : 0.168
Stream size : 505 MiB (84%)
Writing library : x264 core 155 r2901 7d0ff22
Encoding settings : cabac=1 / ref=16 / deblock=1:0:0 / analyse=0x3:0x133 / me=umh / subme=10 / psy=1 / psy_rd=0.80:0.00 / mixed_ref=1 / me_range=24 / chroma_me=1 / trellis=2 / 8x8dct=1 / cqm=0 / deadzone=21,11 / fast_pskip=1 / chroma_qp_offset=-2 / threads=12 / lookahead_threads=2 / sliced_threads=0 / nr=0 / decimate=1 / interlaced=0 / bluray_compat=0 / constrained_intra=0 / bframes=8 / b_pyramid=2 / b_adapt=2 / b_bias=0 / direct=3 / weightb=1 / open_gop=0 / weightp=2 / keyint=300 / keyint_min=29 / scenecut=40 / intra_refresh=0 / rc_lookahead=60 / rc=crf / mbtree=1 / crf=16.0 / qcomp=0.60 / qpmin=0 / qpmax=69 / qpstep=4 / vbv_maxrate=62500 / vbv_bufsize=78125 / crf_max=0.0 / nal_hrd=none / filler=0 / ip_ratio=1.40 / aq=1:1.00
Default : Yes
Forced : No

Audio
ID : 2
Format : AAC
Format/Info : Advanced Audio Codec
Format profile : LC
Codec ID : A_AAC-2
Duration : 45 min 34 s
Bit rate : 288 kb/s
Channel(s) : 2 channels
Channel positions : Front: L R
Sampling rate : 48.0 kHz
Frame rate : 46.875 FPS (1024 SPF)
Compression mode : Lossy
Delay relative to video : 9 ms
Stream size : 95.2 MiB (16%)
Language : Japanese
Default : Yes
Forced : No

Menu
00:00:00.054 : en:00:00:00.054


Трекер:  [ 02-Янв-2019 00:01 ]

  

Скачать .torrent

Размер .torrent файла 12 KB


Размер: 601 MB
Хэш (hash) релиза: ac1beb24e78ae2f04f36c4f472e9c14dcfd7092d

Еще никто не оставлял запись к записи скачать торрент Mellow Merou . Будь первым!

!Обратная связь