Скачать порно через торрент Jewelry The Animation Драгоценности UnionPeer.org бесплатно онлайн HD качество

Скачать новое порно 2015, 2014 новинки через торрент UnionPeer.org

Порно торрент бесплатно ЮнионПир.орг

Статистика раздачи
Размер:  1.67 GB   |    Зарегистрирован:  22 дня   |    .torrent скачан:  290 раз   |   
Раздают:  1  
   
загрузка...
 
Автор Сообщение

Galfimbul

avatar Galfimbul


Jewelry The Animation
Драгоценности

Год выпуска: 2018
Жанр: romance, straight, oral
Серии: ep. 1 of 1
Продолжительность: 17mn
Цензура: Отсутствует

Озвучка: Японская оригинальная
Субтитры: Русские [торрент иваниваныч] внешние ASS
Субтитры: Английские [HH] встроенные и внешние ASS, [SakuraCircle], [SubDESU-H] внешние ASS
Субтитры: Португальские [Diogo4D] внешние ASS
Субтитры: Китайские [Haretahoo.sub], [Maho.sub], [nekomoekissaten] внешние ASS

Режиссёр: Oota Hideta
Автор оригинала: Shibasaki Shouji
Студия: Studio 1st, Bootleg, MS Pictures

Описание: Романтическая история молодой пары в новогоднюю ночь.

anidb

Доп. информация: Ансаб ХХ оказался самым плохим , Сакуры самым хорошим .

Качество видео: BDrip [LegitRips]
Разрешение видео: 1080p
Формат видео: MKV
Видео: 1920-1080, 16-9, 23.976 fps, AVC, 12.7 mbps
Аудио: jpn, PCM, Stereo, 48.0 KHz, 1536 kbps
General
Unique ID : 152669133846193200276723105952237704336 (0x72DB017200E242EA80BEF710FFE95490)
Complete name : Jewelry_[UNCEN][BDrip][LegitRips][36CBF6F4].mkv
Format : Matroska
Format version : Version 4 / Version 2
File size : 1.66 GiB
Duration : 16 min 39 s
Overall bit rate mode : Variable
Overall bit rate : 14.3 Mb/s
Encoded date : UTC 2018-12-18 04:54:25
Writing application : mkvmerge v28.2.0 (''The Awakening'') 64-bit
Writing library : libebml v1.3.6 + libmatroska v1.4.9
Attachments : Cabin-Bold.otf / Cabin-BoldItalic.otf / CronosPro-Bold.otf / IwaOMinPro-Bd-Fate.ttf

Video
ID : 1
Format : AVC
Format/Info : Advanced Video Codec
Format profile : High@L4.1
Format settings : CABAC / 4 Ref Frames
Format settings, CABAC : Yes
Format settings, RefFrames : 4 frames
Codec ID : V_MPEG4/ISO/AVC
Duration : 16 min 39 s
Bit rate mode : Variable
Bit rate : 12.7 Mb/s
Maximum bit rate : 30.0 Mb/s
Width : 1 920 pixels
Height : 1 080 pixels
Display aspect ratio : 16:9
Frame rate mode : Constant
Frame rate : 23.976 (24000/1001) FPS
Color space : YUV
Chroma subsampling : 4:2:0
Bit depth : 8 bits
Scan type : Progressive
Bits/(Pixel*Frame) : 0.256
Stream size : 1.48 GiB (89%)
Language : English
Default : No
Forced : No
Color range : Limited
Color primaries : BT.709
Transfer characteristics : BT.709
Matrix coefficients : BT.709

Audio
ID : 2
Format : PCM
Format settings : Little / Signed
Codec ID : A_PCM/INT/LIT
Duration : 16 min 39 s
Bit rate mode : Constant
Bit rate : 1 536 kb/s
Channel(s) : 2 channels
Sampling rate : 48.0 kHz
Frame rate : 30.001 FPS (1600 SPF)
Bit depth : 16 bits
Stream size : 183 MiB (11%)
Title : Stereo
Language : Japanese
Default : Yes
Forced : No

Text
ID : 3
Format : ASS
Codec ID : S_TEXT/ASS
Codec ID/Info : Advanced Sub Station Alpha
Duration : 14 min 37 s
Bit rate : 42 b/s
Count of elements : 118
Compression mode : Lossless
Stream size : 4.57 KiB (0%)
Language : English
Default : Yes
Forced : No

Menu
00:00:00.000 : en:Chapter 01
00:06:21.798 : en:Chapter 02
00:11:07.208 : en:Chapter 03
00:15:15.748 : en:Chapter 04


Трекер:  [ 30-Дек-2018 00:03 ]

  

Скачать .torrent

Размер .torrent файла 18 KB


Размер: 1.67 GB
Хэш (hash) релиза: acd5bb1c83c83e9bbd7f851f6a444427e56004a9

Еще никто не оставлял запись к записи скачать торрент Jewelry The Animation Драгоценности . Будь первым!

!Обратная связь