Скачать порно через торрент In`youchuu Shoku: Ryoushokutou Taimaroku - Harami Ochiru Shoujo-tachi Anime Edition Harem of the Hell Spawn UnionPeer.org бесплатно онлайн HD качество

Скачать новое порно 2015, 2014 новинки через торрент UnionPeer.org

Порно торрент бесплатно ЮнионПир.орг

Статистика раздачи
Размер:  1.63 GB   |    Зарегистрирован:  1 месяц 1 день   |    .torrent скачан:  360 раз   |   
Раздают:  1  
   
загрузка...
 
Автор Сообщение

Galfimbul

avatar Galfimbul


In`youchuu Shoku: Ryoushokutou Taimaroku - Harami Ochiru Shoujo-tachi Anime Edition
Harem of the Hell Spawn
Развратные тентакли

Год выпуска: 2017
Жанр: tentacle, monster, futunari, rape, anal, pregnant
Серии: ep. 1 of 1
Продолжительность: 15mn
Цензура: Отсутствует

Озвучка: Японская оригинальная
Субтитры: Английские [HH] встроенные и внешние ASS
Субтитры: Китайские [Haretahoo.sub], [Maho.sub] внешние ASS

Режиссёр: Itou Fumio
Автор оригинала: chaccu
Студия: Studio 9 Maiami, AniMan, MS Pictures

Описание: чушь и снова чушь

anidb

Доп. информация: Победитель номинации "Худший разценуренный хентай всех времён".

Качество видео: BDrip [LegitRips]
Разрешение видео: 1080p
Формат видео: MKV
Видео: 1920-1080, 16-9, 23.976 fps, AVC, 14.1 mbps
Аудио: jpn, PCM, Stereo, 48.0 KHz, 1536 kbps
General
Unique ID : 111548452730885170682091727282518967753 (0x53EB73565B4C0C592E770B98266945C9)
Complete name : In`youchuu_shoku_ryoushokutou_taimaroku_anime_edition_[UNCEN][BDrip][LegitRips][D6548341].mkv
Format : Matroska
Format version : Version 4 / Version 2
File size : 1.63 GiB
Duration : 14 min 56 s
Overall bit rate mode : Variable
Overall bit rate : 15.6 Mb/s
Encoded date : UTC 2018-12-18 04:59:48
Writing application : mkvmerge v28.2.0 (''The Awakening'') 64-bit
Writing library : libebml v1.3.6 + libmatroska v1.4.9
Attachments : CronosPro-Bold.otf / IwaOMinPro-Bd-Fate.ttf / Cabin-Bold.otf / Cabin-BoldItalic.otf

Video
ID : 1
Format : AVC
Format/Info : Advanced Video Codec
Format profile : High@L4.1
Format settings : CABAC / 4 Ref Frames
Format settings, CABAC : Yes
Format settings, RefFrames : 4 frames
Format settings, GOP : M=3, N=23
Codec ID : V_MPEG4/ISO/AVC
Duration : 14 min 56 s
Bit rate mode : Variable
Bit rate : 14.1 Mb/s
Maximum bit rate : 30.0 Mb/s
Width : 1 920 pixels
Height : 1 080 pixels
Display aspect ratio : 16:9
Frame rate mode : Constant
Frame rate : 23.976 (24000/1001) FPS
Color space : YUV
Chroma subsampling : 4:2:0
Bit depth : 8 bits
Scan type : Progressive
Bits/(Pixel*Frame) : 0.283
Stream size : 1.47 GiB (90%)
Language : English
Default : No
Forced : No
Color range : Limited
Color primaries : BT.709
Transfer characteristics : BT.709
Matrix coefficients : BT.709

Audio
ID : 2
Format : PCM
Format settings : Little / Signed
Codec ID : A_PCM/INT/LIT
Duration : 14 min 56 s
Bit rate mode : Constant
Bit rate : 1 536 kb/s
Channel(s) : 2 channels
Sampling rate : 48.0 kHz
Frame rate : 30.001 FPS (1600 SPF)
Bit depth : 16 bits
Stream size : 164 MiB (10%)
Title : Stereo
Language : Japanese
Default : Yes
Forced : No

Text
ID : 3
Format : ASS
Codec ID : S_TEXT/ASS
Codec ID/Info : Advanced Sub Station Alpha
Duration : 12 min 32 s
Bit rate : 82 b/s
Count of elements : 150
Compression mode : Lossless
Stream size : 7.57 KiB (0%)
Language : English
Default : Yes
Forced : No

Menu
00:00:00.000 : en:Chapter 01
00:04:51.040 : en:Chapter 02
00:07:58.227 : en:Chapter 03
00:13:08.078 : en:Chapter 04


Трекер:  [ 20-Дек-2018 00:23 ]

  

Скачать .torrent

Размер .torrent файла 17 KB


Размер: 1.63 GB
Хэш (hash) релиза: 9ccc6935c572b0fddc6db20f8e638cea2f50bd56

Еще никто не оставлял запись к записи скачать торрент In`youchuu Shoku: Ryoushokutou Taimaroku - Harami Ochiru Shoujo-tachi Anime Edition Harem of the Hell Spawn . Будь первым!

!Обратная связь