Скачать порно через торрент Juvenile Pornography The Animation Milf Park UnionPeer.org бесплатно онлайн HD качество

Скачать новое порно 2015, 2014 новинки через торрент UnionPeer.org

Порно торрент бесплатно ЮнионПир.орг

Статистика раздачи
Размер:  3.03 GB   |    Зарегистрирован:  1 месяц 2 дня   |    .torrent скачан:  615 раз   |   
Раздают:  1  
   
загрузка...
 
Автор Сообщение

Galfimbul

avatar Galfimbul


Juvenile Pornography The Animation
ジュヴナイルポルノグラフィ THE ANIMATION
Milf Park
Юношеская порнография

Год выпуска: 2017
Жанр: big breast, oral, ahegao, creampie
Серии: ep. 1 of 1
Продолжительность: 17mn
Цензура: Отсутствует

Озвучка: Японская оригинальная
Субтитры: Русские [genien & Opos] внешние ASS
Субтитры: Английские [HH] встроенные и внешние ASS, [SakuraCircle], [SubDESU-H] внешние ASS
Субтитры: Португальские [Diogo4D] внешние ASS
Субтитры: Китайские [Haretahoo.sub], [Maho.sub], [nekomoekissaten] внешние ASS

Режиссёр: 朧矇褫楓龍
Автор оригинала: Mizuryuu Kei
Студия: Kosaka Shii, Office Takeout, Bootleg

Описание: As the sun filters through the trees, a beautiful woman is absorbed in her book. She reads the tale of a girl who is honest about her desires, a girl who writhes in boundless pleasure. "Hey, let's have sex." Who's speaking? Is it the girl in the story or the woman who's reading it? The truth is that something even more erotic than the book's story awaits!

Source: Hanime

anidb

Доп. информация: Как квадратики с писек убирать, так это мы запросто. А как название переводить, тут мы стесняемся.

Качество видео: BDrip [LegitRips]
Разрешение видео: 1080p
Формат видео: MKV
Видео: 1920-1080, 16-9, 23.976 fps, AVC, 23.5 mbps
Аудио: jpn, PCM, Stereo, 48.0 KHz, 1536 kbps
General
Unique ID : 154894007280843784603180628882153841876 (0x7487802CC0017D85C669733AA280A4D4)
Complete name : Juvenile_pornography_[UNCEN][BDrip][LegitRips][EE2DBA5E].mkv
Format : Matroska
Format version : Version 4 / Version 2
File size : 3.01 GiB
Duration : 17 min 13 s
Overall bit rate mode : Variable
Overall bit rate : 25.0 Mb/s
Encoded date : UTC 2018-12-18 05:12:23
Writing application : mkvmerge v28.2.0 ('The Awakening') 64-bit
Writing library : libebml v1.3.6 + libmatroska v1.4.9
Attachments : Cabin-Bold.otf / Cabin-BoldItalic.otf / CronosPro-Bold.otf / IwaOMinPro-Bd-Fate.ttf

Video
ID : 1
Format : AVC
Format/Info : Advanced Video Codec
Format profile : High@L4.1
Format settings : CABAC / 4 Ref Frames
Format settings, CABAC : Yes
Format settings, RefFrames : 4 frames
Codec ID : V_MPEG4/ISO/AVC
Duration : 17 min 13 s
Bit rate mode : Variable
Bit rate : 23.5 Mb/s
Maximum bit rate : 30.0 Mb/s
Width : 1 920 pixels
Height : 1 080 pixels
Display aspect ratio : 16:9
Frame rate mode : Constant
Frame rate : 23.976 (24000/1001) FPS
Color space : YUV
Chroma subsampling : 4:2:0
Bit depth : 8 bits
Scan type : Progressive
Bits/(Pixel*Frame) : 0.473
Stream size : 2.83 GiB (94%)
Language : English
Default : No
Forced : No
Color range : Limited
Color primaries : BT.709
Transfer characteristics : BT.709
Matrix coefficients : BT.709

Audio
ID : 2
Format : PCM
Format settings : Little / Signed
Codec ID : A_PCM/INT/LIT
Duration : 17 min 13 s
Bit rate mode : Constant
Bit rate : 1 536 kb/s
Channel(s) : 2 channels
Sampling rate : 48.0 kHz
Frame rate : 30.000 FPS (1600 SPF)
Bit depth : 16 bits
Stream size : 189 MiB (6%)
Title : Stereo
Language : Japanese
Default : Yes
Forced : No

Text
ID : 3
Format : ASS
Codec ID : S_TEXT/ASS
Codec ID/Info : Advanced Sub Station Alpha
Duration : 14 min 57 s
Bit rate : 87 b/s
Count of elements : 178
Compression mode : Lossless
Stream size : 9.64 KiB (0%)
Language : English
Default : Yes
Forced : No

Menu
00:00:00.000 : en:Chapter 01
00:04:27.225 : en:Chapter 02
00:08:58.162 : en:Chapter 03
00:15:21.503 : en:Chapter 04


Трекер:  [ 19-Дек-2018 00:33 ]

  

Скачать .torrent

Размер .torrent файла 17 KB


Размер: 3.03 GB
Хэш (hash) релиза: ceb18e732eedbacadc21aedd0627f47f3116099e

Еще никто не оставлял запись к записи скачать торрент Juvenile Pornography The Animation Milf Park . Будь первым!

!Обратная связь