Скачать порно через торрент Succuba Mist Story The Animation Demoness of Dreams UnionPeer.org бесплатно онлайн HD качество

Скачать новое порно 2015, 2014 новинки через торрент UnionPeer.org

Порно торрент бесплатно ЮнионПир.орг

Статистика раздачи
Размер:  2.83 GB   |    Зарегистрирован:  1 месяц 2 дня   |    .torrent скачан:  564 раза   |   
Раздают:  1  
   
загрузка...
 
Автор Сообщение

Galfimbul

avatar Galfimbul


Succuba Mist Story The Animation
さきゅばみすと・すとーりー The Animation
Demoness of Dreams

Год выпуска: 2017
Жанр: succubus, oral, anal, futanari, group, creampie
Серии: ep. 1 of 1
Продолжительность: 17mn
Цензура: Отсутствует

Озвучка: Японская оригинальная
Субтитры: Русские [Maskot & Opos] внешние ASS
Субтитры: Английские [HH] встроенные и внешние ASS, [SakuraCircle] внешние ASS
Субтитры: Китайские [Haretahoo.sub], [Maho.sub], [nekomoekissaten] внешние ASS

Режиссёр: Hayakawa Naomi
Автор оригинала: Kimura Neito
Студия: Office Takeout, Bootleg, MS Pictures

Описание: "I'm a super cute girl who's going to suck out all your semen <3" Lidy always takes the initiative when it comes to sex. Every evening and every night, she "comes over to my place" and has her way with me! it's not that I hate her. If anything..., so... I want to... with her... "If you want me to grant your wish, just give me some of your semen" his beautiful professor offers. What a thing to say! The distance closes between "those two". Just who are "those two"!?!?

Source: Hanime

anidb

Качество видео: BDrip [LegitRips]
Разрешение видео: 1080p
Формат видео: MKV
Видео: 1920-1080, 16-9, 23.976 fps, AVC, 23.1 mbps
Аудио: jpn, PCM, Stereo, 48.0 KHz, 1536 kbps
General
Unique ID : 201922457062405228710709212845886671144 (0x97E8D9C43404C94516D8DB4010100928)
Complete name : Succuba_mist_story_[UNCEN][BDrip][LegitRips][8E96B769].mkv
Format : Matroska
Format version : Version 4 / Version 2
File size : 2.81 GiB
Duration : 16 min 19 s
Overall bit rate mode : Variable
Overall bit rate : 24.7 Mb/s
Encoded date : UTC 2018-12-18 05:04:17
Writing application : mkvmerge v28.2.0 ('The Awakening') 64-bit
Writing library : libebml v1.3.6 + libmatroska v1.4.9
Attachments : CronosPro-Bold.otf / IwaOMinPro-Bd-Fate.ttf / BETTYSHAND-PLAIN.TTF / Cabin-Bold.otf / Cabin-BoldItalic.otf

Video
ID : 1
Format : AVC
Format/Info : Advanced Video Codec
Format profile : High@L4.1
Format settings : CABAC / 4 Ref Frames
Format settings, CABAC : Yes
Format settings, RefFrames : 4 frames
Codec ID : V_MPEG4/ISO/AVC
Duration : 16 min 19 s
Bit rate mode : Variable
Bit rate : 23.1 Mb/s
Maximum bit rate : 30.0 Mb/s
Width : 1 920 pixels
Height : 1 080 pixels
Display aspect ratio : 16:9
Frame rate mode : Constant
Frame rate : 23.976 (24000/1001) FPS
Color space : YUV
Chroma subsampling : 4:2:0
Bit depth : 8 bits
Scan type : Progressive
Bits/(Pixel*Frame) : 0.465
Stream size : 2.64 GiB (94%)
Language : English
Default : No
Forced : No
Color range : Limited
Color primaries : BT.709
Transfer characteristics : BT.709
Matrix coefficients : BT.709

Audio
ID : 2
Format : PCM
Format settings : Little / Signed
Codec ID : A_PCM/INT/LIT
Duration : 16 min 19 s
Bit rate mode : Constant
Bit rate : 1 536 kb/s
Channel(s) : 2 channels
Sampling rate : 48.0 kHz
Frame rate : 30.001 FPS (1600 SPF)
Bit depth : 16 bits
Stream size : 179 MiB (6%)
Title : Stereo
Language : Japanese
Default : Yes
Forced : No

Text
ID : 3
Format : ASS
Codec ID : S_TEXT/ASS
Codec ID/Info : Advanced Sub Station Alpha
Duration : 14 min 0 s
Bit rate : 122 b/s
Count of elements : 229
Compression mode : Lossless
Stream size : 12.5 KiB (0%)
Language : English
Default : Yes
Forced : No

Menu
00:00:00.000 : en:Chapter 01
00:06:02.445 : en:Chapter 02
00:11:09.460 : en:Chapter 03
00:14:29.535 : en:Chapter 04


Трекер:  [ 19-Дек-2018 00:33 ]

  

Скачать .torrent

Размер .torrent файла 15 KB


Размер: 2.83 GB
Хэш (hash) релиза: 45243a519ac1488e15817e3c8f0b2bc950b65c95

Еще никто не оставлял запись к записи скачать торрент Succuba Mist Story The Animation Demoness of Dreams . Будь первым!

!Обратная связь