Скачать порно через торрент Mayoiga no Onee-san The Animation Lusty Ladies of Mayohiga UnionPeer.org бесплатно онлайн HD качество

Скачать новое порно 2015, 2014 новинки через торрент UnionPeer.org

Порно торрент бесплатно ЮнионПир.орг

Статистика раздачи
Размер:  2.99 GB   |    Зарегистрирован:  1 месяц 2 дня   |    .torrent скачан:  426 раз   |   
Раздают:  1  
   
загрузка...
 
Автор Сообщение

Galfimbul

avatar Galfimbul


Mayoiga no Onee-san The Animation
マヨヒガのお姉さん THE ANIMATION
Lusty Ladies of Mayohiga
Сестрёнки из "Маёйги"

Год выпуска: 2017
Жанр: waitress, big breast, handjob, oral, paizuri, group, creampie
Серии: ep. 1 of 1
Продолжительность: 17mn
Цензура: Отсутствует

Озвучка: Японская оригинальная
Субтитры: Английские [HH] встроенные и внешние ASS, [hanimetv] внешние ASS
Субтитры: Китайские [Haretahoo.sub], [Maho.sub] внешние ASS

Режиссёр: Raika Ken
Автор оригинала: Mikemono Yuu
Студия: T-Rex, Bootleg

Описание: "Маёйга" – это такой мистический дом, вознаграждающий заблудившихся путников. В нашем же случае, это кафе, где работает сестрёнка ГГ, куда он и приходит, чтобы расслабиться после успешно сданных экзаменов.

anidb

Доп. информация: Также есть анимэ Mayohiga.

Качество видео: BDrip [LegitRips]
Разрешение видео: 1080p
Формат видео: MKV
Видео: 1920-1080, 16-9, 23.976 fps, AVC, 23.3 mbps
Аудио: jpn, PCM, Stereo, 48.0 KHz, 1536 kbps
General
Unique ID : 204812176221114721869368558068748357077 (0x9A1563EBBEC453164CF507A58FED8DD5)
Complete name : Mayoiga_no_onee-san_[UNCEN][BDrip][LegitRips][708A3587].mkv
Format : Matroska
Format version : Version 4 / Version 2
File size : 2.98 GiB
Duration : 17 min 8 s
Overall bit rate mode : Variable
Overall bit rate : 24.9 Mb/s
Encoded date : UTC 2018-12-18 05:08:28
Writing application : mkvmerge v28.2.0 ('The Awakening') 64-bit
Writing library : libebml v1.3.6 + libmatroska v1.4.9
Attachments : Cabin-Bold.otf / Cabin-BoldItalic.otf / CronosPro-Bold.otf / IwaOMinPro-Bd-Fate.ttf

Video
ID : 1
Format : AVC
Format/Info : Advanced Video Codec
Format profile : High@L4.1
Format settings : CABAC / 4 Ref Frames
Format settings, CABAC : Yes
Format settings, RefFrames : 4 frames
Codec ID : V_MPEG4/ISO/AVC
Duration : 17 min 8 s
Bit rate mode : Variable
Bit rate : 23.3 Mb/s
Maximum bit rate : 30.0 Mb/s
Width : 1 920 pixels
Height : 1 080 pixels
Display aspect ratio : 16:9
Frame rate mode : Constant
Frame rate : 23.976 (24000/1001) FPS
Color space : YUV
Chroma subsampling : 4:2:0
Bit depth : 8 bits
Scan type : Progressive
Bits/(Pixel*Frame) : 0.469
Stream size : 2.79 GiB (94%)
Language : English
Default : No
Forced : No
Color range : Limited
Color primaries : BT.709
Transfer characteristics : BT.709
Matrix coefficients : BT.709

Audio
ID : 2
Format : PCM
Format settings : Little / Signed
Codec ID : A_PCM/INT/LIT
Duration : 17 min 8 s
Bit rate mode : Constant
Bit rate : 1 536 kb/s
Channel(s) : 2 channels
Sampling rate : 48.0 kHz
Frame rate : 30.001 FPS (1600 SPF)
Bit depth : 16 bits
Stream size : 188 MiB (6%)
Title : Stereo
Language : Japanese
Default : Yes
Forced : No

Text
ID : 3
Format : ASS
Codec ID : S_TEXT/ASS
Codec ID/Info : Advanced Sub Station Alpha
Duration : 14 min 54 s
Bit rate : 79 b/s
Count of elements : 152
Compression mode : Lossless
Stream size : 8.65 KiB (0%)
Language : English
Default : Yes
Forced : No

Menu
00:00:00.000 : en:Chapter 01
00:05:42.091 : en:Chapter 02
00:11:45.037 : en:Chapter 03
00:15:20.210 : en:Chapter 04


Трекер:  [ 19-Дек-2018 00:03 ]

  

Скачать .torrent

Размер .torrent файла 16 KB


Размер: 2.99 GB
Хэш (hash) релиза: eb9031cd099f4eac2a32bce81547690b28e640c9

Еще никто не оставлял запись к записи скачать торрент Mayoiga no Onee-san The Animation Lusty Ladies of Mayohiga . Будь первым!

!Обратная связь